<?xml version="1.0" standalone="no"?>
<!DOCTYPE svg PUBLIC "-//W3C//DTD SVG 1.1//EN" "http://www.w3.org/Graphics/SVG/1.1/DTD/svg11.dtd">
<svg xmlns="http://www.w3.org/2000/svg">
<defs >
<font id="Jost" horiz-adv-x="546" ><font-face
    font-family="Jost Medium"
    units-per-em="1000"
    panose-1="0 0 0 0 0 0 0 0 0 0"
    ascent="1070"
    descent="-375"
    alphabetic="0" />
<glyph unicode=" " horiz-adv-x="300" />
<glyph unicode="!" horiz-adv-x="318" d="M91 700L116 213H201L226 700H91ZM88 49Q88 21 108 1T159 -19Q189 -19 209 1T230 49Q230 78 210 97T159 116Q129 116 109 97T88 49Z" />
<glyph unicode="&quot;" horiz-adv-x="486" d="M120 700L73 393H145L241 700H120ZM313 700L265 393H338L434 700H313Z" />
<glyph unicode="#" horiz-adv-x="630" d="M75 429H213L232 431H429L449 429H595V516H75V429ZM35 189H555V276H429L405 274H193L170 276H35V189ZM463 700L409 482L407 460L355 248L347 227L293 0H390L560 700H463ZM240 700L70 0H168L223 226L225 247L277 462L285
485L338 700H240Z" />
<glyph unicode="$" horiz-adv-x="597" d="M260 818L263 656H352L354 818H260ZM263 54L260 -112H354L352 54H263ZM444 504L536 561Q519 598 489 632T413 688T304 710Q241 710 191 686T113 622T84 533Q84 483 102 448T148 389T207 349T265 324Q305 309 340 292T398
251T421 188Q421 158 410 137T375 104T315 92Q275 92 243 109T186 158T137 236L46 177Q68 123 107 81T198 15T310 -10Q385 -10 437 14T517 85T545 193Q545 240 530 274T488 333T430 375T368 403Q326 419 289 435T230 473T207 529Q207 555 217 573T250 602T307 612Q341
612 366 597T410 558T444 504Z" />
<glyph unicode="%" horiz-adv-x="819" d="M30 544Q30 497 51 459T112 397T200 374Q251 374 289 397T349 458T371 544Q371 591 350 629T290 691T200 714Q151 714 112 691T52 630T30 544ZM123 544Q123 567 132 586T159 616T200 627Q225 627 242 616T269 586T279
544Q279 522 269 503T242 472T200 460Q177 460 160 471T133 502T123 544ZM448 157Q448 110 469 71T530 10T618 -13Q669 -13 707 9T767 71T789 157Q789 204 767 242T707 304T618 327Q569 327 530 304T470 243T448 157ZM540 157Q540 180 549 198T576 228T618 240Q643
240 660 229T686 198T696 157Q696 135 687 116T660 85T618 73Q594 73 577 84T550 115T540 157ZM598 700L113 0H221L706 700H598Z" />
<glyph unicode="&amp;" horiz-adv-x="706" d="M223 379L560 0H687L317 415Q283 454 257 484T230 547Q230 580 250 601T309 623Q334 623 351 613T378 585T388 546Q388 515 357 482T269 418Q249 408 220 395T159 365T101 323T57 264T40 185Q40 125 73 81T159 13T273
-11Q342 -11 401 14T510 79T602 170T682 272L604 326Q571 278 534 235T457 158T373 104T284 84Q246 84 217 98T172 136T155 193Q155 228 172 252T217 295T276 328T334 360Q372 383 401 405T450 450T480 498T491 552Q491 594 470 630T409 690T310 714Q253 714 211
693T145 634T121 551Q121 514 138 483T180 427T223 379Z" />
<glyph unicode="&apos;" horiz-adv-x="294" d="M120 700L73 393H145L241 700H120Z" />
<glyph unicode="(" horiz-adv-x="323" d="M199 780Q139 668 110 543T81 290Q81 163 110 38T199 -200H299Q247 -87 221 38T195 290Q195 418 221 543T299 780H199Z" />
<glyph unicode=")" horiz-adv-x="323" d="M124 -200Q184 -87 212 38T241 290Q241 418 213 543T124 780H24Q77 668 102 543T128 290Q128 163 103 38T24 -200H124Z" />
<glyph unicode="*" horiz-adv-x="592" d="M482 601L287 518L306 460L512 508L482 601ZM460 347L320 507L272 471L381 290L460 347ZM212 290L320 471L272 507L132 347L212 290ZM80 508L287 460L306 518L110 601L80 508ZM247 700L266 489H326L345 700H247Z" />
<glyph unicode="+" horiz-adv-x="639" d="M65 208H574V314H65V208ZM263 516V5H376V516H263Z" />
<glyph unicode="," horiz-adv-x="314" d="M137 110L49 -149L129 -171L246 79L137 110Z" />
<glyph unicode="-" horiz-adv-x="215" d="M5 189H210V286H5V189Z" />
<glyph unicode="." horiz-adv-x="309" d="M84 51Q84 23 104 2T155 -19Q185 -19 205 2T225 51Q225 80 205 100T155 121Q125 121 105 101T84 51Z" />
<glyph unicode="/" horiz-adv-x="553" d="M431 700L15 -150H124L538 700H431Z" />
<glyph unicode="0" horiz-adv-x="625" d="M156 350Q156 406 167 453T198 534T248 586T313 605Q349 605 377 587T426 534T458 453T469 350Q469 294 458 247T427 166T378 114T313 95Q277 95 248 113T199 166T167 247T156 350ZM40 350Q40 241 74 160T170 34T313 -11Q395
-11 456 34T551 160T585 350Q585 459 551 540T456 666T313 711Q232 711 171 666T75 540T40 350Z" />
<glyph unicode="1" horiz-adv-x="474" d="M75 536L238 581V0H354V711L75 648V536Z" />
<glyph unicode="2" horiz-adv-x="604" d="M20 0H554V110H251L449 305Q492 345 519 396T546 502Q546 537 531 574T487 642T412 692T306 712Q227 712 171 679T87 587T58 453H175Q175 499 190 534T235 587T304 606Q333 606 355 597T392 571T415 536T423 496Q423 468
414 443T387 393T344 341L20 0Z" />
<glyph unicode="3" horiz-adv-x="576" d="M262 343Q336 343 393 365T484 428T517 522Q517 574 492 616T418 685T302 711Q238 711 189 686T113 616T85 514H196Q196 556 227 583T303 611Q335 611 356 599T387 566T398 516Q398 494 389 474T362 439T319 415T262 406V343ZM297
-12Q369 -12 423 13T507 83T537 188Q537 240 516 277T458 339T370 374T262 385V318Q298 318 326 310T375 287T407 250T418 200Q418 165 404 141T362 103T299 90Q264 90 236 103T191 142T174 200H55Q55 157 72 119T120 51T196 5T297 -12Z" />
<glyph unicode="4" horiz-adv-x="629" d="M18 134H594V236H451L434 228H191L371 489V187L363 176V0H484V700H413L18 134Z" />
<glyph unicode="5" horiz-adv-x="597" d="M557 228Q557 299 529 351T452 432T346 461Q317 461 289 455T235 436L279 596H550V700H190L95 315Q131 337 161 349T221 365T282 370Q322 370 356 354T410 308T430 235Q430 193 413 163T362 116T282 99Q249 99 216 112T154
148T105 199L35 113Q62 80 98 52T183 6T297 -11Q348 -11 394 3T477 47T535 122T557 228Z" />
<glyph unicode="6" horiz-adv-x="614" d="M166 236Q166 279 184 312T235 364T307 383Q347 383 379 365T429 313T448 236Q448 193 430 161T379 111T307 92Q267 92 235 110T185 161T166 236ZM331 699L109 401Q83 368 67 327T50 236Q50 159 84 103T177 18T307 -12Q379
-12 437 17T529 103T564 236Q564 286 547 328T500 400T432 447T353 464Q317 464 291 456T242 421L259 424L481 699H331Z" />
<glyph unicode="7" horiz-adv-x="556" d="M30 589H377L90 0H216L553 700H30V589Z" />
<glyph unicode="8" horiz-adv-x="579" d="M79 531Q79 487 95 454T141 397T208 362T289 350Q332 350 370 362T438 397T483 453T500 531Q500 585 472 625T396 689T289 713Q231 713 183 690T107 626T79 531ZM191 519Q191 548 203 571T238 606T289 619Q319 619 340
607T375 571T388 519Q388 489 375 467T339 433T289 420Q263 420 241 432T205 467T191 519ZM54 190Q54 146 72 110T123 46T198 3T289 -12Q338 -12 380 3T455 45T506 109T525 190Q525 241 505 279T451 342T375 380T289 393Q246 393 204 381T128 343T74 279T54 190ZM170
206Q170 239 186 266T230 308T289 324Q321 324 348 309T392 266T409 206Q409 168 392 142T348 102T289 88Q258 88 231 102T187 142T170 206Z" />
<glyph unicode="9" horiz-adv-x="614" d="M448 464Q448 421 430 388T379 336T307 317Q267 317 235 336T185 388T166 464Q166 507 184 539T235 590T307 609Q347 609 379 591T429 540T448 464ZM282 1L505 299Q530 333 547 374T564 464Q564 542 530 597T437 683T307
713Q235 713 177 683T85 598T50 464Q50 414 67 372T114 300T181 253T261 237Q296 237 322 245T372 279L354 276L132 1H282Z" />
<glyph unicode=":" horiz-adv-x="309" d="M84 51Q84 23 104 2T155 -19Q185 -19 205 2T225 51Q225 80 205 100T155 121Q125 121 105 101T84 51ZM84 429Q84 401 104 380T155 359Q185 359 205 380T225 429Q225 458 205 478T155 499Q125 499 105 479T84 429Z" />
<glyph unicode=";" horiz-adv-x="355" d="M123 426Q123 398 143 377T193 356Q224 356 244 377T264 426Q264 455 244 475T193 496Q164 496 144 476T123 426ZM146 110L58 -149L138 -171L254 79L146 110Z" />
<glyph unicode="&lt;" horiz-adv-x="640" d="M231 264L575 404V511L65 294V226L575 9V116L231 264Z" />
<glyph unicode="=" horiz-adv-x="620" d="M61 118H558V215H61V118ZM61 290H558V388H61V290Z" />
<glyph unicode="&gt;" horiz-adv-x="640" d="M410 256L65 116V9L575 226V294L65 511V404L410 256Z" />
<glyph unicode="?" horiz-adv-x="585" d="M418 500Q418 467 397 435T334 381T232 359H204L224 183H309L315 288Q370 294 418 322T497 396T528 500Q528 548 510 587T459 654T385 698T295 714Q236 714 193 699T116 657T55 592L135 533Q160 573 198 595T285 618Q326
618 356 604T402 564T418 500ZM197 48Q197 21 217 1T268 -19Q298 -19 318 1T338 48Q338 75 318 94T268 114Q238 114 218 95T197 48Z" />
<glyph unicode="@" horiz-adv-x="770" d="M286 320Q286 358 300 387T336 432T382 449Q403 449 419 440T444 412T453 368Q453 322 437 294T398 252T353 239Q320 239 303 260T286 320ZM193 315Q193 266 211 231T260 177T328 158Q374 158 411 182T471 253T494 370Q494
411 480 447T439 507T371 530Q330 530 289 505T221 433T193 315ZM29 320Q29 221 67 145T181 27T365 -16Q447 -16 501 -1T600 41L565 112Q518 84 471 74T370 63Q290 63 233 94T146 183T115 320Q115 388 136 445T196 545T291 612T415 636Q475 636 520 616T595 562T640
483T655 390Q655 328 639 292T603 241T569 226Q555 226 548 232T538 248T535 270Q535 276 535 284T537 297L572 520H480L449 280L459 268Q454 235 465 208T501 165T557 148Q588 148 620 161T680 202T724 277T741 390Q741 451 721 509T659 613T556 687T415 715Q330
715 260 685T137 601T57 475T29 320Z" />
<glyph unicode="A" horiz-adv-x="690" d="M162 180H532L510 280H185L162 180ZM345 502L457 242L459 213L554 0H688L345 739L3 0H136L233 219L235 245L345 502Z" />
<glyph unicode="B" horiz-adv-x="601" d="M168 361H289Q356 361 406 380T484 435T513 524Q513 584 485 623T406 681T289 700H78V0H301Q376 0 432 21T521 88T553 202Q553 252 533 288T478 347T398 381T301 393H168V327H294Q324 327 349 321T393 300T422 264T432
214Q432 175 414 150T365 111T294 98H196V603H281Q331 603 361 579T392 511Q392 482 378 462T339 430T281 419H168V361Z" />
<glyph unicode="C" horiz-adv-x="691" d="M166 350Q166 425 199 480T287 566T405 597Q455 597 495 584T568 549T624 498V638Q581 675 530 694T401 713Q324 713 258 687T142 612T66 497T38 350Q38 271 65 205T142 89T257 14T401 -12Q478 -12 529 7T624 62V203Q600
174 568 152T496 116T405 103Q341 103 287 134T200 220T166 350Z" />
<glyph unicode="D" horiz-adv-x="701" d="M78 700V0H199V700H78ZM304 0Q411 0 492 43T618 165T664 350Q664 456 619 534T492 656T304 700H151V589H301Q353 589 397 574T473 529T524 454T543 350Q543 291 525 246T474 172T397 127T301 111H151V0H304Z" />
<glyph unicode="E" horiz-adv-x="571" d="M151 0H504V104H151V0ZM151 596H504V700H151V596ZM151 324H484V426H151V324ZM78 700V0H194V700H78Z" />
<glyph unicode="F" horiz-adv-x="521" d="M151 594H464V700H151V594ZM151 316H454V419H151V316ZM78 700V0H194V700H78Z" />
<glyph unicode="G" horiz-adv-x="791" d="M411 266H626Q617 231 599 200T554 145T490 108T406 95Q337 95 282 127T195 216T163 350Q163 427 195 483T283 571T406 603Q479 603 530 573T611 493L707 557Q676 606 632 640T532 694T406 713Q327 713 260 687T143 612T66
497T38 350Q38 270 65 203T141 87T258 12T404 -15Q488 -15 553 15T662 99T728 220T748 366H411V266Z" />
<glyph unicode="H" horiz-adv-x="744" d="M125 321H625V430H125V321ZM548 700V0H666V700H548ZM78 700V0H196V700H78Z" />
<glyph unicode="I" horiz-adv-x="275" d="M78 700V0H198V700H78Z" />
<glyph unicode="J" horiz-adv-x="276" d="M-69 -88L-132 -175Q-119 -186 -97 -198T-46 -218T15 -227Q54 -227 88 -218T147 -187T185 -134T199 -57V700H78V-36Q78 -83 56 -102T11 -122Q-14 -122 -35 -113T-69 -88Z" />
<glyph unicode="K" horiz-adv-x="619" d="M78 700V0H199V700H78ZM459 700L164 369L471 0H617L306 372L602 700H459Z" />
<glyph unicode="L" horiz-adv-x="481" d="M78 700V0H474V106H196V700H78Z" />
<glyph unicode="M" horiz-adv-x="843" d="M208 426L421 65L635 426L683 0H805L709 735L421 260L134 735L38 0H160L208 426Z" />
<glyph unicode="N" horiz-adv-x="783" d="M589 700V230L78 735V0H194V470L705 -35V700H589Z" />
<glyph unicode="O" horiz-adv-x="803" d="M163 350Q163 422 194 478T278 567T401 599Q472 599 525 567T609 479T639 350Q639 278 609 222T525 134T401 101Q332 101 279 133T194 222T163 350ZM38 350Q38 272 65 205T141 89T256 13T401 -15Q481 -15 547 12T662 89T738
205T765 350Q765 429 738 495T662 609T546 685T401 713Q324 713 258 686T142 610T65 495T38 350Z" />
<glyph unicode="P" horiz-adv-x="578" d="M78 700V0H196V700H78ZM148 596H289Q350 596 387 568T424 483Q424 427 387 398T289 369H148V265H289Q366 265 422 291T509 367T541 483Q541 550 510 598T422 673T289 700H148V596Z" />
<glyph unicode="Q" horiz-adv-x="820" d="M163 350Q163 422 194 478T279 567T403 599Q476 599 530 565T616 473T647 343Q647 271 616 215T532 128T408 96Q338 96 283 128T196 218T163 350ZM38 350Q38 272 65 205T141 89T257 13T403 -15Q482 -15 548 12T663 89T738
205T765 350Q765 429 738 495T662 609T547 685T403 713Q325 713 259 686T143 610T66 495T38 350ZM370 300L683 -5H821L506 300H370Z" />
<glyph unicode="R" horiz-adv-x="595" d="M223 334L445 0H588L350 334H223ZM78 700V0H196V700H78ZM148 598H289Q330 598 360 584T407 544T424 480Q424 443 407 417T360 377T289 363H148V265H294Q371 265 427 292T514 368T546 483Q546 549 515 597T427 673T294
700H148V598Z" />
<glyph unicode="S" horiz-adv-x="579" d="M124 226L36 164Q59 116 98 75T190 10T304 -15Q349 -15 390 -1T465 40T517 106T537 194Q537 240 521 274T480 334T423 376T359 404Q303 424 268 443T217 483T200 532Q200 562 223 584T295 607Q330 607 356 594T403 558T437
509L532 563Q515 600 483 634T405 690T297 713Q234 713 185 689T106 623T77 524Q77 475 96 441T144 383T205 344T263 319Q307 303 341 287T393 247T412 185Q412 143 382 117T304 91Q265 91 233 108T174 155T124 226Z" />
<glyph unicode="T" horiz-adv-x="504" d="M8 591H193V0H311V591H496V700H8V591Z" />
<glyph unicode="U" horiz-adv-x="656" d="M73 700V230Q73 172 91 127T144 49T225 0T328 -17Q384 -17 431 0T512 49T565 126T584 230V700H465V235Q465 171 431 131T328 91Q261 91 226 131T191 235V700H73Z" />
<glyph unicode="V" horiz-adv-x="690" d="M345 208L139 700H3L345 -39L688 700H551L345 208Z" />
<glyph unicode="W" horiz-adv-x="1020" d="M712 232L510 735L312 232L145 700H8L294 -37L510 458L726 -37L1013 700H875L712 232Z" />
<glyph unicode="X" horiz-adv-x="608" d="M441 700L307 464L176 700H33L241 364L8 0H151L306 269L456 0H600L373 364L585 700H441Z" />
<glyph unicode="Y" horiz-adv-x="601" d="M463 700L300 401L138 700H3L241 294V0H361V295L598 700H463Z" />
<glyph unicode="Z" horiz-adv-x="575" d="M44 591H364L13 0H531V106H205L558 700H44V591Z" />
<glyph unicode="[" horiz-adv-x="325" d="M204 683H305V780H96V-220H305V-122H204V683Z" />
<glyph unicode="\" horiz-adv-x="528" d="M15 700L403 0H513L125 700H15Z" />
<glyph unicode="]" horiz-adv-x="325" d="M121 -122H20V-220H229V780H20V683H121V-122Z" />
<glyph unicode="^" horiz-adv-x="510" d="M255 605L353 455H455L285 710H225L55 455H158L255 605Z" />
<glyph unicode="_" horiz-adv-x="513" d="M0 -141H513V-70H0V-141Z" />
<glyph unicode="`" horiz-adv-x="375" d="M66 658L246 508L308 543L158 703L66 658Z" />
<glyph unicode="a" horiz-adv-x="504" d="M137 143Q137 165 147 180T179 203T234 212Q273 212 308 202T374 170V225Q365 236 343 249T288 273T208 283Q122 283 75 244T28 137Q28 90 50 57T109 7T189 -10Q229 -10 267 4T331 49T357 123L341 183Q341 148 325 123T283
85T223 71Q198 71 179 79T148 103T137 143ZM103 340Q114 347 134 357T182 375T243 383Q264 383 282 379T313 366T334 343T341 307V0H447V328Q447 374 423 406T354 454T254 471Q189 471 140 453T59 416L103 340Z" />
<glyph unicode="b" horiz-adv-x="589" d="M174 780H65V0H174V780ZM555 230Q555 306 524 359T442 441T331 470Q274 470 230 441T161 359T135 230Q135 156 160 102T230 19T331 -10Q391 -10 442 18T524 101T555 230ZM443 230Q443 184 424 151T374 101T305 84Q273
84 243 101T194 150T174 230Q174 277 193 309T243 359T305 376Q343 376 374 359T424 309T443 230Z" />
<glyph unicode="c" horiz-adv-x="484" d="M141 230Q141 273 160 306T211 358T284 377Q316 377 346 367T399 340T434 299V419Q410 442 369 456T279 470Q209 470 153 440T63 355T30 230Q30 160 63 106T152 21T279 -10Q328 -10 369 4T434 42V161Q423 139 400 122T348
94T284 83Q244 83 212 102T160 154T141 230Z" />
<glyph unicode="d" horiz-adv-x="589" d="M415 780V0H524V780H415ZM34 230Q34 155 65 101T147 19T258 -10Q316 -10 359 19T428 102T454 230Q454 305 429 358T360 441T258 470Q199 470 148 442T65 360T34 230ZM146 230Q146 276 165 309T215 359T284 376Q316 376
346 359T395 310T415 230Q415 183 396 151T346 101T284 84Q247 84 216 101T165 151T146 230Z" />
<glyph unicode="e" horiz-adv-x="539" d="M269 -10Q349 -10 406 21T500 115L406 152Q385 115 352 97T274 79Q232 79 203 97T159 150T144 234Q144 284 159 318T203 370T273 388Q307 388 332 373T372 331T387 267Q387 260 384 250T377 234L410 280H99V205H503Q503
209 503 218T504 235Q504 309 477 361T399 442T274 470Q201 470 147 441T64 357T34 230Q34 158 63 104T145 20T269 -10Z" />
<glyph unicode="f" horiz-adv-x="309" d="M31 460V365H295V460H31ZM284 664L334 748Q326 758 312 768T278 786T231 793Q182 793 149 774T99 720T81 630V0H188V609Q188 638 194 656T210 682T236 690Q248 690 261 685T284 664Z" />
<glyph unicode="g" horiz-adv-x="586" d="M43 -31Q45 -91 74 -137T156 -208T283 -234Q346 -234 400 -208T487 -127T521 10V460H415V10Q415 -42 396 -75T345 -124T281 -140Q242 -140 213 -126T168 -87T151 -31H43ZM34 233Q34 157 65 104T147 23T258 -5Q316 -5 359
23T428 105T454 233Q454 308 429 360T360 441T258 470Q199 470 148 442T65 362T34 233ZM146 233Q146 279 165 311T215 359T284 376Q308 376 331 367T373 340T403 295T415 233Q415 186 396 154T346 106T284 89Q247 89 216 105T165 154T146 233Z" />
<glyph unicode="h" horiz-adv-x="543" d="M178 780H69V0H178V780ZM365 280V0H474V295Q474 354 456 393T403 453T316 473Q264 473 228 448T172 379T152 280H178Q178 311 190 334T226 370T280 383Q324 383 344 357T365 280Z" />
<glyph unicode="i" horiz-adv-x="267" d="M65 643Q65 616 85 597T133 577Q162 577 182 596T202 643Q202 671 182 690T133 709Q106 709 86 690T65 643ZM80 460V0H187V460H80Z" />
<glyph unicode="j" horiz-adv-x="259" d="M55 643Q55 616 75 597T123 578Q151 578 170 597T190 643Q190 671 171 689T123 708Q95 708 75 690T55 643ZM-23 -99L-74 -183Q-63 -195 -49 -205T-15 -221T30 -227Q78 -227 111 -208T162 -152T179 -65V460H73V-44Q73 -72
68 -90T52 -116T25 -125Q9 -125 -3 -118T-23 -99Z" />
<glyph unicode="k" horiz-adv-x="495" d="M65 780V0H171V780H65ZM340 460L142 270L361 0H493L274 270L473 460H340Z" />
<glyph unicode="l" horiz-adv-x="246" d="M69 780V0H178V780H69Z" />
<glyph unicode="m" horiz-adv-x="796" d="M728 293Q728 349 712 389T663 449T581 470Q535 470 499 450T437 388Q422 428 389 449T305 470Q260 470 228 451T175 393V460H69V0H175V280Q175 313 186 336T218 371T266 383Q306 383 324 358T343 280V0H451V280Q451 313
462 336T494 371T543 383Q582 383 600 358T619 280V0H728V293Z" />
<glyph unicode="n" horiz-adv-x="545" d="M365 280V0H476V293Q476 375 435 422T316 470Q269 470 235 450T178 389V460H69V0H178V280Q178 311 190 334T226 370T280 383Q323 383 344 357T365 280Z" />
<glyph unicode="o" horiz-adv-x="564" d="M34 230Q34 160 66 106T155 21T282 -10Q353 -10 409 20T497 105T530 230Q530 301 498 355T409 439T282 470Q212 470 156 440T67 355T34 230ZM145 230Q145 273 163 306T212 357T282 375Q321 375 352 357T401 306T419 230Q419
187 401 155T352 104T282 85Q243 85 212 103T163 154T145 230Z" />
<glyph unicode="p" horiz-adv-x="589" d="M174 -220V460H65V-220H174ZM555 230Q555 308 524 361T442 444T331 473Q273 473 230 443T162 359T138 230Q138 156 162 102T229 18T331 -12Q391 -12 442 16T524 99T555 230ZM443 230Q443 184 424 152T374 103T305 86Q273
86 243 102T194 151T174 230Q174 277 193 309T243 357T305 374Q343 374 374 358T424 309T443 230Z" />
<glyph unicode="q" horiz-adv-x="589" d="M415 -220H524V460H415V-220ZM34 230Q34 154 65 100T147 17T258 -12Q317 -12 360 17T427 101T451 230Q451 305 427 359T360 443T258 473Q199 473 148 444T65 362T34 230ZM146 230Q146 276 165 308T215 357T284 374Q316
374 346 358T395 309T415 230Q415 183 396 151T346 103T284 86Q247 86 216 103T165 152T146 230Z" />
<glyph unicode="r" horiz-adv-x="371" d="M176 460H69V0H176V460ZM313 345L366 436Q350 455 328 463T281 471Q246 471 214 446T161 378T140 280L176 259Q176 292 183 316T208 355T252 369Q272 369 285 363T313 345Z" />
<glyph unicode="s" horiz-adv-x="424" d="M90 152L27 88Q47 62 77 39T146 1T233 -14Q308 -14 352 25T397 130Q397 172 378 198T327 242T256 275Q228 286 206 296T170 318T156 347Q156 366 171 376T210 386Q244 386 276 369T330 325L390 389Q371 412 344 430T284
459T212 470Q170 470 134 457T76 415T54 345Q54 304 73 277T123 234T185 205Q216 194 239 184T275 159T288 124Q288 101 272 88T226 75Q203 75 180 84T135 110T90 152Z" />
<glyph unicode="t" horiz-adv-x="271" d="M5 460V365H266V460H5ZM83 620V0H189V620H83Z" />
<glyph unicode="u" horiz-adv-x="545" d="M180 180V460H69V168Q69 86 110 38T229 -10Q277 -10 311 10T368 71V0H476V460H368V180Q368 149 355 126T319 90T266 77Q222 77 201 104T180 180Z" />
<glyph unicode="v" horiz-adv-x="475" d="M-1 460L238 -42L476 460H358L238 163L118 460H-1Z" />
<glyph unicode="w" horiz-adv-x="713" d="M0 460L215 -32L353 278L498 -32L713 460H595L487 185L353 495L225 187L118 460H0Z" />
<glyph unicode="x" horiz-adv-x="465" d="M334 460L234 316L134 460H10L176 237L0 0H124L234 158L344 0H465L290 237L455 460H334Z" />
<glyph unicode="y" horiz-adv-x="473" d="M476 460H360L216 99L267 96L120 460H-4L182 54L61 -220H176L476 460Z" />
<glyph unicode="z" horiz-adv-x="485" d="M283 360L15 0H445V100H207L470 460H50V360H283Z" />
<glyph unicode="{" horiz-adv-x="346" d="M213 640Q213 660 226 675T261 690H296V780H224Q194 780 165 766T117 721T98 640V440Q98 383 85 361T45 330V250Q72 243 85 220T98 140V-60Q98 -109 117 -140T165 -185T224 -200H296V-110H261Q239 -110 226 -95T213 -60V90Q213
123 210 160T196 228T159 280T88 300V280Q133 280 158 300T195 351T210 420T213 490V640Z" />
<glyph unicode="|" horiz-adv-x="306" d="M100 785V-215H206V785H100Z" />
<glyph unicode="}" horiz-adv-x="346" d="M140 -60Q140 -79 128 -94T92 -110H57V-200H129Q159 -200 188 -186T236 -140T255 -60V140Q255 197 268 220T308 250V330Q282 338 269 360T255 440V640Q255 690 236 720T188 765T129 780H57V690H92Q115 690 127 675T140
640V490Q140 457 142 420T157 352T194 300T265 280V300Q220 300 195 280T157 229T143 160T140 90V-60Z" />
<glyph unicode="~" horiz-adv-x="575" d="M148 171Q146 177 145 183T143 196Q143 218 155 232T193 247Q206 247 219 243T248 232T278 213Q312 189 341 177T397 165Q429 165 454 177T498 214Q513 233 518 254T523 295Q523 303 522 310T519 323L423 328Q426 321
427 314T428 299Q428 278 419 266T390 253Q377 253 359 261T318 286Q296 302 276 313T235 329T194 335Q156 335 128 321T80 280Q65 260 59 240T53 200Q53 187 56 176L148 171Z" />
<glyph unicode="&#xa0;" horiz-adv-x="300" />
<glyph unicode="&#xa1;" horiz-adv-x="318" d="M226 -239L201 249H116L91 -239H226ZM230 413Q230 442 210 461T159 480Q129 480 109 461T88 413Q88 384 108 365T159 345Q189 345 209 364T230 413Z" />
<glyph unicode="&#xa2;" horiz-adv-x="580" d="M263 38L259 -112H349L345 38H263ZM179 230Q179 273 198 306T250 358T323 377Q375 377 415 354T473 299V419Q449 443 407 456T318 470Q247 470 191 440T102 355T69 230Q69 160 101 106T190 21T318 -10Q365 -10 407
3T473 42V162Q455 130 415 107T323 83Q283 83 251 101T199 153T179 230ZM259 578L263 428H345L349 578H259Z" />
<glyph unicode="&#xa3;" horiz-adv-x="593" d="M67 370V285H435V370H67ZM444 474L541 512Q539 543 525 577T483 642T416 691T324 710Q262 710 212 688T133 622T104 519Q104 481 114 453T139 401T170 358T196 315T206 264Q206 218 190 177T141 94T59 0H526V104H169L147
50Q175 58 204 77T258 126T298 191T313 267Q313 301 304 325T281 370T253 411T229 455T219 510Q219 544 234 565T274 596T326 606Q356 606 378 595T414 565T435 522T444 474Z" />
<glyph unicode="&#xa4;" horiz-adv-x="579" d="M32 503L128 408L182 462L87 558L32 503ZM87 42L182 139L128 193L32 97L87 42ZM451 408L547 503L493 558L396 462L451 408ZM396 139L493 42L547 97L451 193L396 139ZM52 300Q52 231 83 177T169 91T290 60Q358 60
411 91T496 176T528 300Q528 370 497 424T412 509T290 540Q223 540 169 509T84 424T52 300ZM155 300Q155 341 172 373T220 422T290 440Q328 440 358 423T406 373T424 300Q424 259 407 227T359 178T290 160Q251 160 221 177T173 227T155 300Z" />
<glyph unicode="&#xa5;" horiz-adv-x="616" d="M45 280H566V365H45V280ZM45 130H566V215H45V130ZM471 700L308 401L145 700H10L248 296V0H369V299L605 700H471Z" />
<glyph unicode="&#xa6;" horiz-adv-x="306" d="M100 695V445H206V695H100ZM206 255H100V5H206V255Z" />
<glyph unicode="&#xa7;" horiz-adv-x="476" d="M346 567L413 631Q402 655 376 674T313 704T239 716Q199 716 162 701T100 656T75 585Q75 555 86 533T116 495T157 468T203 447Q230 437 255 426T297 398T314 356Q314 336 303 318T274 287T233 273V236Q272 236 305
243T365 266T405 309T419 373Q419 409 401 435T354 480T288 511Q269 519 250 526T215 541T190 559T181 581Q181 594 188 602T210 615T243 620Q261 620 280 614T317 597T346 567ZM109 166L40 104Q54 71 83 44T152 1T240 -15Q277 -15 310 -7T368 19T407 64T421 130Q421
167 403 193T356 239T294 271Q275 279 254 286T215 304T186 329T174 369Q174 390 184 404T213 429T258 449V480Q215 480 181 472T121 446T83 405T69 349Q69 311 90 283T143 237T209 207Q236 198 259 188T296 164T310 129Q310 112 302 102T279 86T240 80Q216 80
191 90T144 120T109 166Z" />
<glyph unicode="&#xa8;" horiz-adv-x="487" d="M284 649Q284 621 304 602T352 583Q381 583 400 602T420 649Q420 677 401 696T352 715Q324 715 304 696T284 649ZM66 649Q66 621 86 602T135 583Q163 583 183 602T203 649Q203 677 183 696T135 715Q107 715 87 696T66 649Z" />
<glyph unicode="&#xa9;" horiz-adv-x="800" d="M259 350Q259 395 278 428T330 479T403 498Q447 498 480 482T534 439V523Q508 545 478 556T401 568Q339 568 290 540T211 463T182 350Q182 287 211 238T289 161T401 133Q447 133 477 144T534 177V261Q513 236 480
219T403 202Q363 202 330 220T278 272T259 350ZM95 350Q95 417 118 473T182 572T279 637T400 660Q465 660 520 637T617 572T682 474T705 350Q705 283 682 227T618 128T521 63T400 40Q335 40 280 63T183 128T118 226T95 350ZM40 350Q40 272 67 206T143 92T258 17T400
-10Q477 -10 542 16T656 91T732 206T760 350Q760 428 733 494T657 608T543 683T400 710Q324 710 258 684T144 609T68 494T40 350Z" />
<glyph unicode="&#xaa;" horiz-adv-x="251" d="M74 531Q74 549 88 562T126 575Q147 575 163 570T194 553V582Q188 588 168 598T118 609Q79 609 49 588T19 530Q19 494 43 475T101 455Q137 455 161 473T186 525L178 551Q178 521 159 509T117 497Q94 497 84 507T74
531ZM62 638Q70 643 89 651T133 660Q152 660 165 651T178 625V460H231V633Q231 668 205 686T136 705Q105 705 81 696T41 678L62 638Z" />
<glyph unicode="&#xab;" horiz-adv-x="523" d="M315 259L465 445L398 498L213 255L398 13L465 65L315 259ZM138 259L288 445L220 498L35 255L220 13L288 65L138 259Z" />
<glyph unicode="&#xac;" horiz-adv-x="632" d="M65 289H480V175H567V386H65V289Z" />
<glyph unicode="&#xad;" horiz-adv-x="210" d="M5 200H205V275H5V200Z" />
<glyph unicode="&#xae;" horiz-adv-x="800" d="M360 345L484 150H569L432 345H360ZM266 570V150H337V570H266ZM308 509H393Q430 509 452 492T474 440Q474 406 452 388T393 370H308V312H396Q464 312 505 347T547 442Q547 499 506 534T396 570H308V509ZM95 350Q95
417 118 473T182 572T279 637T400 660Q465 660 520 637T617 572T682 474T705 350Q705 283 682 227T618 128T521 63T400 40Q335 40 280 63T183 128T118 226T95 350ZM40 350Q40 272 67 206T143 92T258 17T400 -10Q477 -10 542 16T656 91T732 206T760 350Q760 428
733 494T657 608T543 683T400 710Q324 710 258 684T144 609T68 494T40 350Z" />
<glyph unicode="&#xaf;" horiz-adv-x="519" d="M80 589H439V686H80V589Z" />
<glyph unicode="&#xb0;" horiz-adv-x="286" d="M19 599Q19 546 54 512T143 478Q196 478 231 512T267 599Q267 653 232 686T143 720Q89 720 54 687T19 599ZM73 599Q73 631 92 651T143 672Q173 672 193 652T213 599Q213 567 193 547T142 526Q112 526 93 546T73 599Z" />
<glyph unicode="&#xb1;" horiz-adv-x="623" d="M65 3H558V103H65V3ZM65 340H558V443H65V340ZM255 620V163H368V620H255Z" />
<glyph unicode="&#xb2;" horiz-adv-x="371" d="M25 282H345V348H163L282 465Q308 490 324 518T340 579Q340 609 325 639T280 690T200 710Q153 710 119 690T66 634T48 554H118Q118 596 140 621T199 646Q222 646 237 637T259 612T267 580Q267 555 255 533T219 487L25 282Z" />
<glyph unicode="&#xb3;" horiz-adv-x="333" d="M146 486Q191 486 225 499T280 537T300 593Q300 639 266 673T171 707Q113 707 77 674T40 589H107Q107 614 125 630T171 647Q200 647 214 632T228 590Q228 572 219 557T191 533T146 524V486ZM167 273Q232 273 272
306T312 393Q312 435 290 461T231 499T146 511V471Q175 471 196 463T228 439T240 400Q240 369 221 352T169 334Q137 334 116 352T94 400H22Q22 366 39 337T90 290T167 273Z" />
<glyph unicode="&#xb4;" horiz-adv-x="375" d="M308 658L216 703L66 543L128 508L308 658Z" />
<glyph unicode="&#xb5;" horiz-adv-x="545" d="M180 460H69V-320H175V11Q193 1 211 -3T248 -7Q286 -7 316 10T368 58V0H476V460H368V190Q368 160 355 137T319 100T266 87Q221 87 201 113T180 190V460Z" />
<glyph unicode="&#xb6;" horiz-adv-x="616" d="M288 270V-220H383V624H461V-220H556V700H288Q226 700 174 675T91 603T60 485Q60 416 91 368T174 295T288 270Z" />
<glyph unicode="&#xb7;" horiz-adv-x="309" d="M84 251Q84 223 104 202T155 181Q185 181 205 202T225 251Q225 280 205 300T155 321Q125 321 105 301T84 251Z" />
<glyph unicode="&#xb8;" horiz-adv-x="368" d="M191 65L105 -114Q125 -103 145 -100T172 -97Q197 -97 211 -105T226 -131Q226 -149 214 -159T175 -169Q157 -169 142 -164T110 -145L72 -196Q98 -218 123 -226T183 -235Q212 -235 238 -224T282 -190T299 -135Q299
-107 287 -89T256 -61T219 -51Q214 -51 209 -51T199 -53L272 63L191 65Z" />
<glyph unicode="&#xb9;" horiz-adv-x="475" d="M145 596L242 623V274H312V701L145 663V596Z" />
<glyph unicode="&#xba;" horiz-adv-x="278" d="M20 580Q20 527 55 494T143 460Q197 460 232 493T268 580Q268 634 233 667T143 700Q90 700 55 667T20 580ZM75 580Q75 612 94 632T143 652Q173 652 192 632T212 580Q212 548 193 528T143 508Q114 508 95 528T75 580Z" />
<glyph unicode="&#xbb;" horiz-adv-x="523" d="M208 251L58 65L125 13L310 255L125 498L58 445L208 251ZM385 251L235 65L303 13L488 255L303 498L235 445L385 251Z" />
<glyph unicode="&#xbc;" horiz-adv-x="782" d="M623 700L103 0H181L701 700H623ZM28 596L125 623V274H195V701L28 663V596ZM402 80H748V142H654L644 137H460L402 80ZM475 92L614 294V108L609 102V0H682V420H639L402 80L475 92Z" />
<glyph unicode="&#xbd;" horiz-adv-x="849" d="M623 700L103 0H181L701 700H623ZM28 596L125 623V274H195V701L28 663V596ZM498 2H818V68H636L755 185Q781 210 797 238T813 299Q813 329 798 359T753 410T673 430Q626 430 592 410T539 354T521 274H591Q591 316
613 341T672 366Q695 366 710 357T732 332T740 300Q740 275 728 253T692 207L498 2Z" />
<glyph unicode="&#xbe;" horiz-adv-x="844" d="M689 700L169 0H246L766 700H689ZM153 486Q197 486 231 499T286 537T306 593Q306 639 272 673T177 707Q119 707 83 674T46 589H113Q113 614 131 630T177 647Q206 647 220 632T235 590Q235 572 225 557T197 533T153
524V486ZM174 273Q238 273 278 306T318 393Q318 435 296 461T237 499T153 511V471Q181 471 202 463T235 439T247 400Q247 369 227 352T175 334Q143 334 122 352T100 400H28Q28 366 46 337T96 290T174 273ZM465 80H811V142H717L707 137H523L465 80ZM538 92L677 294V108L672
102V0H745V420H702L465 80L538 92Z" />
<glyph unicode="&#xbf;" horiz-adv-x="585" d="M167 200Q167 233 188 265T251 319T353 341H382L362 518H277L271 412Q216 407 168 379T89 306T58 200Q58 152 76 113T126 46T201 2T291 -14Q351 -14 394 1T469 43T530 109L450 167Q425 128 387 106T301 83Q259 83
230 96T184 136T167 200ZM388 653Q388 680 368 699T318 719Q288 719 268 700T247 653Q247 626 267 606T318 586Q348 586 368 606T388 653Z" />
<glyph unicode="&#xc0;" horiz-adv-x="690" d="M162 180H532L510 280H185L162 180ZM345 502L457 242L459 213L554 0H688L345 739L3 0H136L233 219L235 245L345 502ZM203 949L383 799L444 834L294 994L203 949Z" />
<glyph unicode="&#xc1;" horiz-adv-x="690" d="M162 180H532L510 280H185L162 180ZM345 502L457 242L459 213L554 0H688L345 739L3 0H136L233 219L235 245L345 502ZM486 949L395 994L245 834L306 799L486 949Z" />
<glyph unicode="&#xc2;" horiz-adv-x="690" d="M162 180H532L510 280H185L162 180ZM345 502L457 242L459 213L554 0H688L345 739L3 0H136L233 219L235 245L345 502ZM345 860L448 769L520 821L345 961L170 821L243 769L345 860Z" />
<glyph unicode="&#xc3;" horiz-adv-x="690" d="M162 180H532L510 280H185L162 180ZM345 502L457 242L459 213L554 0H688L345 739L3 0H136L233 219L235 245L345 502ZM168 832L228 785Q228 793 232 805T246 826T277 836Q301 836 319 824T357 800T405 787Q433 787
456 798T497 828T523 865L467 920Q452 896 438 883T407 870Q386 870 373 877T347 895T318 912T278 919Q252 919 229 908T189 877T168 832Z" />
<glyph unicode="&#xc4;" horiz-adv-x="690" d="M162 180H532L510 280H185L162 180ZM345 502L457 242L459 213L554 0H688L345 739L3 0H136L233 219L235 245L345 502ZM393 842Q393 815 413 796T461 776Q490 776 510 795T530 842Q530 870 510 889T461 908Q434 908
414 889T393 842ZM158 845Q158 817 178 798T226 779Q255 779 275 798T295 845Q295 873 275 891T226 910Q199 910 179 892T158 845Z" />
<glyph unicode="&#xc5;" horiz-adv-x="690" d="M162 180H532L510 280H185L162 180ZM345 502L457 242L459 213L554 0H688L345 739L3 0H136L233 219L235 245L345 502ZM234 799Q234 752 267 723T345 693Q389 693 422 722T456 799Q456 847 423 876T345 905Q301 905
268 876T234 799ZM296 799Q296 823 311 836T345 850Q364 850 379 837T394 799Q394 775 379 762T345 748Q326 748 311 761T296 799Z" />
<glyph unicode="&#xc6;" horiz-adv-x="1010" d="M238 186H541V296H241L238 186ZM436 700L9 0H151L543 660L436 700ZM575 0H940V104H575V0ZM583 596H940V700H436L583 596ZM575 324H920V426H575V324ZM514 700V0H638V700H514Z" />
<glyph unicode="&#xc7;" horiz-adv-x="691" d="M166 350Q166 425 199 480T287 566T405 597Q455 597 495 584T568 549T624 498V638Q581 675 530 694T401 713Q324 713 258 687T142 612T66 497T38 350Q38 271 65 205T142 89T257 14T401 -12Q478 -12 529 7T624 62V203Q600
174 568 152T496 116T405 103Q341 103 287 134T200 220T166 350ZM371 55L285 -124Q305 -113 325 -110T352 -107Q377 -107 392 -114T407 -141Q407 -159 394 -169T355 -179Q338 -179 322 -173T290 -155L251 -206Q278 -228 303 -236T363 -245Q392 -245 418 -234T462
-200T479 -145Q479 -116 467 -98T436 -71T399 -61Q394 -61 389 -61T379 -63L451 53L371 55Z" />
<glyph unicode="&#xc8;" horiz-adv-x="571" d="M151 0H504V104H151V0ZM151 596H504V700H151V596ZM151 324H484V426H151V324ZM78 700V0H194V700H78ZM148 925L328 775L389 810L239 970L148 925Z" />
<glyph unicode="&#xc9;" horiz-adv-x="571" d="M151 0H504V104H151V0ZM151 596H504V700H151V596ZM151 324H484V426H151V324ZM78 700V0H194V700H78ZM432 925L341 970L191 810L252 775L432 925Z" />
<glyph unicode="&#xca;" horiz-adv-x="571" d="M151 0H504V104H151V0ZM151 596H504V700H151V596ZM151 324H484V426H151V324ZM78 700V0H194V700H78ZM298 864L401 773L473 825L298 965L123 825L196 773L298 864Z" />
<glyph unicode="&#xcb;" horiz-adv-x="571" d="M151 0H504V104H151V0ZM151 596H504V700H151V596ZM151 324H484V426H151V324ZM78 700V0H194V700H78ZM339 853Q339 826 359 807T407 788Q436 788 455 807T475 853Q475 882 456 900T407 919Q379 919 359 901T339 853ZM121
853Q121 826 141 807T190 788Q218 788 238 807T258 853Q258 882 238 900T190 919Q162 919 142 901T121 853Z" />
<glyph unicode="&#xcc;" horiz-adv-x="275" d="M78 700V0H198V700H78ZM-8 925L172 775L234 810L84 970L-8 925Z" />
<glyph unicode="&#xcd;" horiz-adv-x="275" d="M78 700V0H198V700H78ZM276 925L186 970L36 810L96 775L276 925Z" />
<glyph unicode="&#xce;" horiz-adv-x="275" d="M78 700V0H198V700H78ZM137 864L240 773L312 825L137 965L-38 825L35 773L137 864Z" />
<glyph unicode="&#xcf;" horiz-adv-x="275" d="M78 700V0H198V700H78ZM179 838Q179 811 198 792T246 773Q275 773 295 792T315 838Q315 867 295 885T246 904Q218 904 199 886T179 838ZM-39 838Q-39 811 -19 792T29 773Q57 773 77 792T98 838Q98 867 78 885T29
904Q1 904 -19 886T-39 838Z" />
<glyph unicode="&#xd0;" horiz-adv-x="701" d="M5 307H325V392H5V307ZM78 700V0H199V700H78ZM304 0Q411 0 492 43T618 165T664 350Q664 456 619 534T492 656T304 700H151V589H301Q353 589 397 574T473 529T524 454T543 350Q543 291 525 246T474 172T397 127T301
111H151V0H304Z" />
<glyph unicode="&#xd1;" horiz-adv-x="783" d="M589 700V230L78 735V0H194V470L705 -35V700H589ZM198 809L258 762Q258 770 262 782T276 803T307 813Q331 813 349 801T387 776T435 763Q463 763 486 775T527 805T553 841L497 897Q482 873 468 860T437 847Q416 847
403 854T377 871T348 888T308 896Q282 896 259 884T219 853T198 809Z" />
<glyph unicode="&#xd2;" horiz-adv-x="803" d="M163 350Q163 422 194 478T278 567T401 599Q472 599 525 567T609 479T639 350Q639 278 609 222T525 134T401 101Q332 101 279 133T194 222T163 350ZM38 350Q38 272 65 205T141 89T256 13T401 -15Q481 -15 547 12T662
89T738 205T765 350Q765 429 738 495T662 609T546 685T401 713Q324 713 258 686T142 610T65 495T38 350ZM270 925L450 775L511 810L361 970L270 925Z" />
<glyph unicode="&#xd3;" horiz-adv-x="803" d="M163 350Q163 422 194 478T278 567T401 599Q472 599 525 567T609 479T639 350Q639 278 609 222T525 134T401 101Q332 101 279 133T194 222T163 350ZM38 350Q38 272 65 205T141 89T256 13T401 -15Q481 -15 547 12T662
89T738 205T765 350Q765 429 738 495T662 609T546 685T401 713Q324 713 258 686T142 610T65 495T38 350ZM539 925L448 970L298 810L359 775L539 925Z" />
<glyph unicode="&#xd4;" horiz-adv-x="803" d="M163 350Q163 422 194 478T278 567T401 599Q472 599 525 567T609 479T639 350Q639 278 609 222T525 134T401 101Q332 101 279 133T194 222T163 350ZM38 350Q38 272 65 205T141 89T256 13T401 -15Q481 -15 547 12T662
89T738 205T765 350Q765 429 738 495T662 609T546 685T401 713Q324 713 258 686T142 610T65 495T38 350ZM405 864L508 773L580 825L405 965L230 825L303 773L405 864Z" />
<glyph unicode="&#xd5;" horiz-adv-x="803" d="M163 350Q163 422 194 478T278 567T401 599Q472 599 525 567T609 479T639 350Q639 278 609 222T525 134T401 101Q332 101 279 133T194 222T163 350ZM38 350Q38 272 65 205T141 89T256 13T401 -15Q481 -15 547 12T662
89T738 205T765 350Q765 429 738 495T662 609T546 685T401 713Q324 713 258 686T142 610T65 495T38 350ZM226 820L287 773Q287 781 291 793T305 814T336 824Q359 824 377 812T416 787T464 774Q492 774 515 786T556 816T581 852L525 908Q510 884 496 871T466 858Q445
858 432 865T406 882T377 899T337 907Q311 907 287 895T247 864T226 820Z" />
<glyph unicode="&#xd6;" horiz-adv-x="803" d="M163 350Q163 422 194 478T278 567T401 599Q472 599 525 567T609 479T639 350Q639 278 609 222T525 134T401 101Q332 101 279 133T194 222T163 350ZM38 350Q38 272 65 205T141 89T256 13T401 -15Q481 -15 547 12T662
89T738 205T765 350Q765 429 738 495T662 609T546 685T401 713Q324 713 258 686T142 610T65 495T38 350ZM442 838Q442 811 462 792T510 773Q539 773 558 792T578 838Q578 867 559 885T510 904Q482 904 462 886T442 838ZM224 838Q224 811 244 792T293 773Q321 773
341 792T361 838Q361 867 341 885T293 904Q265 904 245 886T224 838Z" />
<glyph unicode="&#xd7;" horiz-adv-x="596" d="M129 15L298 189L468 15L539 86L364 255L539 425L468 496L298 321L129 496L58 425L232 255L58 86L129 15Z" />
<glyph unicode="&#xd8;" horiz-adv-x="790" d="M163 350Q163 423 194 479T278 567T401 599Q471 599 524 567T608 479T639 350Q639 277 609 221T525 133T401 101Q332 101 279 133T194 221T163 350ZM38 350Q38 272 65 205T141 89T256 13T401 -15Q480 -15 546 12T661
89T738 205T765 350Q765 429 738 495T662 609T546 685T401 713Q323 713 257 686T141 610T65 495T38 350ZM692 753L44 -7L107 -52L756 708L692 753Z" />
<glyph unicode="&#xd9;" horiz-adv-x="656" d="M73 700V230Q73 172 91 127T144 49T225 0T328 -17Q384 -17 431 0T512 49T565 126T584 230V700H465V235Q465 171 431 131T328 91Q261 91 226 131T191 235V700H73ZM186 923L366 773L427 808L277 968L186 923Z" />
<glyph unicode="&#xda;" horiz-adv-x="656" d="M73 700V230Q73 172 91 127T144 49T225 0T328 -17Q384 -17 431 0T512 49T565 126T584 230V700H465V235Q465 171 431 131T328 91Q261 91 226 131T191 235V700H73ZM471 923L379 968L229 808L291 773L471 923Z" />
<glyph unicode="&#xdb;" horiz-adv-x="656" d="M73 700V230Q73 172 91 127T144 49T225 0T328 -17Q384 -17 431 0T512 49T565 126T584 230V700H465V235Q465 171 431 131T328 91Q261 91 226 131T191 235V700H73ZM328 864L431 773L503 825L328 965L153 825L226 773L328 864Z" />
<glyph unicode="&#xdc;" horiz-adv-x="656" d="M73 700V230Q73 172 91 127T144 49T225 0T328 -17Q384 -17 431 0T512 49T565 126T584 230V700H465V235Q465 171 431 131T328 91Q261 91 226 131T191 235V700H73ZM376 838Q376 811 396 792T444 773Q473 773 493 792T513
838Q513 867 493 885T444 904Q417 904 397 886T376 838ZM144 838Q144 811 164 792T212 773Q240 773 260 792T280 838Q280 867 260 885T212 904Q184 904 164 886T144 838Z" />
<glyph unicode="&#xdd;" horiz-adv-x="601" d="M443 923L352 968L202 808L263 773L443 923ZM463 700L300 401L138 700H3L241 294V0H361V295L598 700H463Z" />
<glyph unicode="&#xde;" horiz-adv-x="575" d="M80 700V0H190V700H80ZM146 466H286Q329 466 360 454T409 417T427 351Q427 312 410 287T361 249T286 236H146V135H286Q363 135 419 161T507 236T538 351Q538 419 507 467T420 542T286 568H146V466Z" />
<glyph unicode="&#xdf;" horiz-adv-x="580" d="M355 -12Q397 -12 434 3T501 46T546 109T563 187Q563 223 552 248T522 291T484 322T445 347T416 372T404 402Q404 424 414 441T439 476T469 514T494 562T505 630Q505 686 478 722T404 777T298 795Q225 795 172 770T91
697T62 586V-2H171L170 573Q170 617 185 644T226 684T288 697Q316 697 339 689T377 663T391 614Q391 585 381 562T355 520T324 482T298 442T287 396Q287 370 299 351T329 316T368 288T407 260T438 226T450 180Q450 153 438 131T403 96T353 83Q335 83 317 88T283
104T252 127L210 45Q228 28 250 15T299 -5T355 -12Z" />
<glyph unicode="&#xe0;" horiz-adv-x="509" d="M137 136Q137 160 149 177T184 204T241 214Q283 214 315 204T378 170V227Q370 237 349 250T297 273T225 283Q169 283 124 265T54 213T28 126Q28 84 48 54T104 7T189 -10Q237 -10 276 6T338 54T361 130L345 183Q345
142 329 118T285 83T222 72Q195 72 176 79T147 101T137 136ZM114 339Q125 346 145 356T193 375T254 383Q292 383 318 366T345 316V0H451V328Q451 374 427 406T359 454T259 471Q197 471 149 453T70 416L114 339ZM94 681L274 531L336 566L186 726L94 681Z" />
<glyph unicode="&#xe1;" horiz-adv-x="509" d="M137 136Q137 160 149 177T184 204T241 214Q283 214 315 204T378 170V227Q370 237 349 250T297 273T225 283Q169 283 124 265T54 213T28 126Q28 84 48 54T104 7T189 -10Q237 -10 276 6T338 54T361 130L345 183Q345
142 329 118T285 83T222 72Q195 72 176 79T147 101T137 136ZM114 339Q125 346 145 356T193 375T254 383Q292 383 318 366T345 316V0H451V328Q451 374 427 406T359 454T259 471Q197 471 149 453T70 416L114 339ZM424 681L333 726L183 566L244 531L424 681Z" />
<glyph unicode="&#xe2;" horiz-adv-x="509" d="M137 136Q137 160 149 177T184 204T241 214Q283 214 315 204T378 170V227Q370 237 349 250T297 273T225 283Q169 283 124 265T54 213T28 126Q28 84 48 54T104 7T189 -10Q237 -10 276 6T338 54T361 130L345 183Q345
142 329 118T285 83T222 72Q195 72 176 79T147 101T137 136ZM114 339Q125 346 145 356T193 375T254 383Q292 383 318 366T345 316V0H451V328Q451 374 427 406T359 454T259 471Q197 471 149 453T70 416L114 339ZM259 623L362 531L434 584L259 724L84 584L157 531L259
623Z" />
<glyph unicode="&#xe3;" horiz-adv-x="509" d="M137 136Q137 160 149 177T184 204T241 214Q283 214 315 204T378 170V227Q370 237 349 250T297 273T225 283Q169 283 124 265T54 213T28 126Q28 84 48 54T104 7T189 -10Q237 -10 276 6T338 54T361 130L345 183Q345
142 329 118T285 83T222 72Q195 72 176 79T147 101T137 136ZM114 339Q125 346 145 356T193 375T254 383Q292 383 318 366T345 316V0H451V328Q451 374 427 406T359 454T259 471Q197 471 149 453T70 416L114 339ZM82 580L142 533Q142 541 146 553T161 574T191 584Q215
584 233 572T272 547T320 534Q347 534 370 546T411 576T437 612L381 668Q366 644 352 631T321 618Q301 618 287 625T261 642T233 659T192 667Q166 667 143 655T103 624T82 580Z" />
<glyph unicode="&#xe4;" horiz-adv-x="509" d="M137 136Q137 160 149 177T184 204T241 214Q283 214 315 204T378 170V227Q370 237 349 250T297 273T225 283Q169 283 124 265T54 213T28 126Q28 84 48 54T104 7T189 -10Q237 -10 276 6T338 54T361 130L345 183Q345
142 329 118T285 83T222 72Q195 72 176 79T147 101T137 136ZM114 339Q125 346 145 356T193 375T254 383Q292 383 318 366T345 316V0H451V328Q451 374 427 406T359 454T259 471Q197 471 149 453T70 416L114 339ZM300 597Q300 570 320 551T368 531Q397 531 416 550T436
597Q436 625 417 644T368 663Q340 663 320 644T300 597ZM82 597Q82 570 102 551T151 531Q179 531 199 550T219 597Q219 625 199 644T151 663Q123 663 103 644T82 597Z" />
<glyph unicode="&#xe5;" horiz-adv-x="509" d="M137 136Q137 160 149 177T184 204T241 214Q283 214 315 204T378 170V227Q370 237 349 250T297 273T225 283Q169 283 124 265T54 213T28 126Q28 84 48 54T104 7T189 -10Q237 -10 276 6T338 54T361 130L345 183Q345
142 329 118T285 83T222 72Q195 72 176 79T147 101T137 136ZM114 339Q125 346 145 356T193 375T254 383Q292 383 318 366T345 316V0H451V328Q451 374 427 406T359 454T259 471Q197 471 149 453T70 416L114 339ZM148 638Q148 590 181 561T259 531Q303 531 337 560T371
638Q371 685 337 714T259 744Q215 744 182 715T148 638ZM210 638Q210 662 225 675T259 689Q278 689 293 676T308 638Q308 614 293 601T259 587Q240 587 225 600T210 638Z" />
<glyph unicode="&#xe6;" horiz-adv-x="854" d="M212 -10Q290 -10 341 21T404 107H393Q421 46 467 18T584 -10Q662 -10 719 21T815 115L721 152Q700 116 667 98T589 79Q549 79 520 96T476 145T459 224L438 205H817Q818 209 818 217T819 235Q819 307 793 359T718
441T604 470Q561 470 523 457T456 419T407 358H417Q410 414 370 442T259 471Q210 471 163 457T70 416L114 339Q133 352 157 362T206 378T254 383Q299 383 322 360T345 293V228H399Q343 259 305 271T225 283Q166 283 122 264T53 209T28 126Q28 64 77 27T212 -10ZM222
72Q178 72 158 88T137 136Q137 174 163 194T241 214Q274 214 303 206T359 184L345 211L350 123L352 190Q345 130 314 101T222 72ZM459 238Q459 284 474 317T518 369T587 388Q623 388 648 373T688 331T703 266Q703 261 703 258T701 250L725 280H438L459 238Z" />
<glyph unicode="&#xe7;" horiz-adv-x="484" d="M141 230Q141 273 160 306T211 358T284 377Q316 377 346 367T399 340T434 299V419Q410 442 369 456T279 470Q209 470 153 440T63 355T30 230Q30 160 63 106T152 21T279 -10Q328 -10 369 4T434 42V161Q423 139 400
122T348 94T284 83Q244 83 212 102T160 154T141 230ZM250 60L163 -119Q183 -108 203 -105T231 -102Q256 -102 270 -109T285 -136Q285 -154 272 -164T233 -174Q216 -174 200 -168T168 -150L130 -201Q156 -223 182 -231T241 -240Q271 -240 297 -229T340 -195T357
-140Q357 -111 345 -93T315 -66T278 -56Q272 -56 267 -56T258 -58L330 58L250 60Z" />
<glyph unicode="&#xe8;" horiz-adv-x="539" d="M99 205H503Q504 214 504 221T504 235Q504 308 477 360T398 441T274 470Q209 470 159 446T79 379T38 279Q36 267 35 255T34 230Q34 161 63 107T145 21T269 -10Q332 -10 374 5T447 49T500 115L406 152Q393 130 374
114T331 88T274 79Q236 79 207 95T161 146T144 230L146 258Q146 298 162 327T208 372T273 388Q308 388 332 375T369 337T387 280H99V205ZM124 688L304 538L366 573L216 733L124 688Z" />
<glyph unicode="&#xe9;" horiz-adv-x="539" d="M99 205H503Q504 214 504 221T504 235Q504 308 477 360T398 441T274 470Q209 470 159 446T79 379T38 279Q36 267 35 255T34 230Q34 161 63 107T145 21T269 -10Q332 -10 374 5T447 49T500 115L406 152Q393 130 374
114T331 88T274 79Q236 79 207 95T161 146T144 230L146 258Q146 298 162 327T208 372T273 388Q308 388 332 375T369 337T387 280H99V205ZM439 688L348 733L198 573L259 538L439 688Z" />
<glyph unicode="&#xea;" horiz-adv-x="539" d="M99 205H503Q504 214 504 221T504 235Q504 308 477 360T398 441T274 470Q209 470 159 446T79 379T38 279Q36 267 35 255T34 230Q34 161 63 107T145 21T269 -10Q332 -10 374 5T447 49T500 115L406 152Q393 130 374
114T331 88T274 79Q236 79 207 95T161 146T144 230L146 258Q146 298 162 327T208 372T273 388Q308 388 332 375T369 337T387 280H99V205ZM274 622L377 530L449 583L274 723L99 583L172 530L274 622Z" />
<glyph unicode="&#xeb;" horiz-adv-x="539" d="M99 205H503Q504 214 504 221T504 235Q504 308 477 360T398 441T274 470Q209 470 159 446T79 379T38 279Q36 267 35 255T34 230Q34 161 63 107T145 21T269 -10Q332 -10 374 5T447 49T500 115L406 152Q393 130 374
114T331 88T274 79Q236 79 207 95T161 146T144 230L146 258Q146 298 162 327T208 372T273 388Q308 388 332 375T369 337T387 280H99V205ZM315 596Q315 569 335 550T383 530Q412 530 431 549T451 596Q451 624 432 643T383 662Q355 662 335 643T315 596ZM97 596Q97
569 117 550T166 530Q194 530 214 549T234 596Q234 624 214 643T166 662Q138 662 118 643T97 596Z" />
<glyph unicode="&#xec;" horiz-adv-x="267" d="M80 460V0H187V460H80ZM-35 695L145 545L206 580L56 740L-35 695Z" />
<glyph unicode="&#xed;" horiz-adv-x="267" d="M80 460V0H187V460H80ZM298 695L207 740L57 580L118 545L298 695Z" />
<glyph unicode="&#xee;" horiz-adv-x="267" d="M80 460V0H187V460H80ZM133 629L236 538L308 590L133 730L-42 590L31 538L133 629Z" />
<glyph unicode="&#xef;" horiz-adv-x="267" d="M80 460V0H187V460H80ZM174 619Q174 591 194 572T242 553Q271 553 290 572T310 619Q310 647 291 665T242 684Q214 684 194 666T174 619ZM-44 619Q-44 591 -24 572T25 553Q53 553 73 572T93 619Q93 647 73 665T25
684Q-3 684 -23 666T-44 619Z" />
<glyph unicode="&#xf0;" horiz-adv-x="596" d="M297 -12Q370 -12 426 20T514 108T547 236Q547 278 535 322T499 414T437 512T348 621T233 739L159 676Q206 637 244 600T315 525T373 449T419 370L464 369Q365 464 259 464Q198 464 151 435T77 354T50 236Q50 164
81 108T169 20T297 -12ZM298 87Q258 87 227 105T179 156T161 230Q161 272 179 305T228 356T298 375Q338 375 368 357T417 305T435 230Q435 189 418 157T369 106T298 87ZM173 505L481 614L463 664L156 555L173 505Z" />
<glyph unicode="&#xf1;" horiz-adv-x="545" d="M178 460H69V0H178V460ZM365 280V0H476V293Q476 380 435 425T316 470Q264 470 226 445T166 376T144 278L178 280Q178 311 190 334T226 370T280 383Q324 383 344 357T365 280ZM96 579L156 532Q156 540 160 552T174
573T205 583Q229 583 247 571T285 546T333 533Q361 533 384 545T425 575T451 611L395 667Q380 643 366 630T335 617Q314 617 301 624T275 641T246 658T206 666Q180 666 157 654T117 623T96 579Z" />
<glyph unicode="&#xf2;" horiz-adv-x="564" d="M34 230Q34 160 66 106T155 21T282 -10Q353 -10 409 20T497 105T530 230Q530 301 498 355T409 439T282 470Q212 470 156 440T67 355T34 230ZM145 230Q145 273 163 306T212 357T282 375Q321 375 352 357T401 306T419
230Q419 187 401 155T352 104T282 85Q243 85 212 103T163 154T145 230ZM122 695L302 545L363 580L213 740L122 695Z" />
<glyph unicode="&#xf3;" horiz-adv-x="564" d="M34 230Q34 160 66 106T155 21T282 -10Q353 -10 409 20T497 105T530 230Q530 301 498 355T409 439T282 470Q212 470 156 440T67 355T34 230ZM145 230Q145 273 163 306T212 357T282 375Q321 375 352 357T401 306T419
230Q419 187 401 155T352 104T282 85Q243 85 212 103T163 154T145 230ZM442 695L351 740L201 580L262 545L442 695Z" />
<glyph unicode="&#xf4;" horiz-adv-x="564" d="M34 230Q34 160 66 106T155 21T282 -10Q353 -10 409 20T497 105T530 230Q530 301 498 355T409 439T282 470Q212 470 156 440T67 355T34 230ZM145 230Q145 273 163 306T212 357T282 375Q321 375 352 357T401 306T419
230Q419 187 401 155T352 104T282 85Q243 85 212 103T163 154T145 230ZM282 637L384 545L457 598L282 738L107 598L179 545L282 637Z" />
<glyph unicode="&#xf5;" horiz-adv-x="564" d="M34 230Q34 160 66 106T155 21T282 -10Q353 -10 409 20T497 105T530 230Q530 301 498 355T409 439T282 470Q212 470 156 440T67 355T34 230ZM145 230Q145 273 163 306T212 357T282 375Q321 375 352 357T401 306T419
230Q419 187 401 155T352 104T282 85Q243 85 212 103T163 154T145 230ZM104 579L165 532Q165 540 169 552T183 573T214 583Q237 583 255 571T294 546T342 533Q370 533 393 545T434 575T459 611L403 667Q388 643 374 630T344 617Q323 617 310 624T284 641T255 658T215
666Q189 666 165 654T125 623T104 579Z" />
<glyph unicode="&#xf6;" horiz-adv-x="564" d="M34 230Q34 160 66 106T155 21T282 -10Q353 -10 409 20T497 105T530 230Q530 301 498 355T409 439T282 470Q212 470 156 440T67 355T34 230ZM145 230Q145 273 163 306T212 357T282 375Q321 375 352 357T401 306T419
230Q419 187 401 155T352 104T282 85Q243 85 212 103T163 154T145 230ZM322 619Q322 591 342 572T391 553Q419 553 439 572T459 619Q459 647 439 665T391 684Q363 684 343 666T322 619ZM105 619Q105 591 125 572T173 553Q202 553 221 572T241 619Q241 647 222 665T173
684Q145 684 125 666T105 619Z" />
<glyph unicode="&#xf7;" horiz-adv-x="630" d="M243 491Q243 463 263 442T314 421Q344 421 364 442T385 491Q385 520 365 540T314 561Q284 561 264 541T243 491ZM243 81Q243 53 263 32T314 11Q344 11 364 32T385 81Q385 110 365 130T314 151Q284 151 264 131T243
81ZM46 239H581V341H46V239Z" />
<glyph unicode="&#xf8;" d="M34 230Q34 159 67 105T156 20T282 -10Q352 -10 408 20T497 104T530 230Q530 303 497 356T408 440T282 470Q212 470 156 440T67 357T34 230ZM140 230Q140 273 159 306T210 359T282 378Q322 378 354 359T405 307T424 230Q424 186 405
153T354 102T282 83Q242 83 210 101T159 153T140 230ZM446 503L56 -21L106 -46L496 478L446 503Z" />
<glyph unicode="&#xf9;" horiz-adv-x="545" d="M368 0H476V460H368V0ZM180 180V460H69V168Q69 80 111 35T229 -10Q281 -10 319 15T379 84T401 183L368 180Q368 150 355 127T319 90T266 77Q221 77 201 103T180 180ZM142 695L322 545L384 580L234 740L142 695Z" />
<glyph unicode="&#xfa;" horiz-adv-x="545" d="M368 0H476V460H368V0ZM180 180V460H69V168Q69 80 111 35T229 -10Q281 -10 319 15T379 84T401 183L368 180Q368 150 355 127T319 90T266 77Q221 77 201 103T180 180ZM402 695L312 740L162 580L222 545L402 695Z" />
<glyph unicode="&#xfb;" horiz-adv-x="545" d="M368 0H476V460H368V0ZM180 180V460H69V168Q69 80 111 35T229 -10Q281 -10 319 15T379 84T401 183L368 180Q368 150 355 127T319 90T266 77Q221 77 201 103T180 180ZM272 637L375 545L447 598L272 738L97 598L170
545L272 637Z" />
<glyph unicode="&#xfc;" horiz-adv-x="545" d="M368 0H476V460H368V0ZM180 180V460H69V168Q69 80 111 35T229 -10Q281 -10 319 15T379 84T401 183L368 180Q368 150 355 127T319 90T266 77Q221 77 201 103T180 180ZM314 611Q314 584 333 565T381 545Q410 545 430
564T450 611Q450 639 430 658T381 677Q353 677 334 658T314 611ZM96 611Q96 584 116 565T164 545Q192 545 212 564T233 611Q233 639 213 658T164 677Q136 677 116 658T96 611Z" />
<glyph unicode="&#xfd;" horiz-adv-x="473" d="M476 460H360L216 99L267 96L120 460H-4L182 54L61 -220H176L476 460ZM379 695L288 740L138 580L199 545L379 695Z" />
<glyph unicode="&#xfe;" horiz-adv-x="589" d="M174 -220V780H65V-220H174ZM555 230Q555 306 524 359T442 441T331 470Q274 470 230 441T161 359T135 230Q135 156 160 102T230 19T331 -10Q391 -10 442 18T524 101T555 230ZM443 230Q443 184 424 151T374 101T305
84Q273 84 243 101T194 150T174 230Q174 277 193 309T243 359T305 376Q343 376 374 359T424 309T443 230Z" />
<glyph unicode="&#xff;" horiz-adv-x="473" d="M476 460H360L216 99L267 96L120 460H-4L182 54L61 -220H176L476 460ZM277 596Q277 569 297 550T345 530Q374 530 393 549T413 596Q413 624 394 643T345 662Q317 662 297 643T277 596ZM59 596Q59 569 79 550T128
530Q156 530 176 549T196 596Q196 624 176 643T128 662Q100 662 80 643T59 596Z" />
<glyph unicode="&#x2013;" horiz-adv-x="758" d="M70 189H685V286H70V189Z" />
<glyph unicode="&#x2014;" horiz-adv-x="910" d="M70 189H839V286H70V189Z" />
<glyph unicode="&#x2018;" horiz-adv-x="298" d="M190 460L248 700H171L70 460H190Z" />
<glyph unicode="&#x2019;" horiz-adv-x="298" d="M108 700L50 460H126L228 700H108Z" />
<glyph unicode="&#x201a;" horiz-adv-x="298" d="M118 80L60 -160H136L238 80H118Z" />
<glyph unicode="&#x201c;" horiz-adv-x="510" d="M190 460L248 700H171L70 460H190ZM403 460L460 700H384L283 460H403Z" />
<glyph unicode="&#x201d;" horiz-adv-x="510" d="M108 700L50 460H126L228 700H108ZM320 700L263 460H339L440 700H320Z" />
<glyph unicode="&#x201e;" horiz-adv-x="510" d="M108 80L50 -160H126L228 80H108ZM320 80L263 -160H339L440 80H320Z" />
<glyph unicode="&#x2022;" horiz-adv-x="300" d="M84 426Q84 398 104 377T155 356Q185 356 205 377T225 426Q225 455 205 475T155 496Q125 496 105 476T84 426Z" />
<glyph unicode="&#x2039;" horiz-adv-x="350" d="M138 259L288 445L220 498L35 255L220 13L288 65L138 259Z" />
<glyph unicode="&#x203a;" horiz-adv-x="350" d="M213 251L63 65L130 13L315 255L130 498L63 445L213 251Z" />
</font>
</defs>
</svg>
